Enable / Włącz Javascript
 Widok 
 Kategorie 
 Nitro Torrent w sieci 
 Top 10 użytkowników 
 Egzorcysta S02E12 - Pierwsza gala MMA Piekło cz. 2 [1080p.WEB-DL.H.264.AC3] [PL]

Egzorcysta S02E12 - Pierwsza gala MMA Piekło cz. 2 [1080p.WEB-DL.H.264.AC3] [PL]
Kategoria: » » » »
Dodane: 07/08/2018
Rozmiar: 738.91 MB
Uploader: Lukarusi (1)
seed(ów): 24
leecher(ów): 7
Pobrane: 197
Komentarzy: 0
Pobierz Torrent Pobierz Torrent
Pobierz [Magnet] Pobierz [Magnet]

Obserwuj
Raportuj
Info

produkcja: PL
gatunek: Komedia, Animacja
twórca: Bartosz Walaszek
czas trwania: ok. 13 min.

Opis

Egzorcysta to człowiek do którego dzwoni się w ostateczności. Na co dzień zajmuje się pracami budowlano-remontowymi. Ale w ramach powołania ? walczy z demonami, wampirami, duchami i tym podobnym cholerstwem.

Dane Techniczne

Format : Matroska
Format version : Version 4 / Version 2
File size : 739 MiB
Duration : 12 min 39 s
Overall bit rate mode : Variable
Overall bit rate : 8 159 kb/s
Encoded date : UTC 2018-08-07 04:43:52

Video
ID : 1
Format : AVC
Format/Info : Advanced Video Codec
Format profile : High@L4.1
Format settings : CABAC / 4 Ref Frames
Format settings, CABAC : Yes
Format settings, ReFrames : 4 frames
Codec ID : V_MPEG4/ISO/AVC
Duration : 12 min 39 s
Bit rate mode : Variable
Bit rate : 7 773 kb/s
Maximum bit rate : 12.0 Mb/s
Width : 1 920 pixels
Height : 860 pixels
Display aspect ratio : 2.2:1
Frame rate mode : Constant
Frame rate : 29.970 (30000/1001) FPS
Color space : YUV
Chroma subsampling : 4:2:0
Bit depth : 8 bits
Scan type : Progressive
Bits/(Pixel*Frame) : 0.157
Stream size : 704 MiB (95%)
Color range : Limited
Color primaries : BT.709
Transfer characteristics : BT.709
Matrix coefficients : BT.709

Audio
ID : 2
Format : AC-3
Format/Info : Audio Coding 3
Codec ID : A_AC3
Duration : 12 min 39 s
Bit rate mode : Constant
Bit rate : 384 kb/s
Channel(s) : 2 channels
Channel positions : Front: L R
Sampling rate : 48.0 kHz
Frame rate : 31.250 FPS (1536 SPF)
Bit depth : 16 bits
Compression mode : Lossy
Stream size : 34.8 MiB (5%)
Language : Polish
Service kind : Complete Main
Dostępne napisy
Brak napisów
Szczegóły torrenta
Tracker http://tracker.vanitycore.co:6969/announce
Multitracker [ Pokaż ]
Kategoria: » » » » [Zgłoś błąd]
Dodane 07-08-2018
Podziękowali:
2 użytkowników 
[ Pokaż ]
Podziękuj!
Pokaż / Ukryj pliki:
Nazwa pliku Rozmiar
Egzorcysta S02E12 - Pierwsza gala MMA Piekło cz. 2 [1080p.WEB-DL.H.264.AC3] [PL].mkv 738.91 MB
1 plik
Brak komentarzy...